#TITLE:Eye Opener;
#SUBTITLE:;
#ARTIST:YoYo;
#TITLETRANSLIT:;
#SUBTITLETRANSLIT:;
#ARTISTTRANSLIT:;
#CREDIT:;
#BANNER:Eye Opener.png;
#BACKGROUND:Eye Opener-bg.png;
#LYRICSPATH:;
#CDTITLE:;
#MUSIC:Eye Opener.mp3;
#MUSICLENGTH:104.860;
#OFFSET:-0.135;
#SAMPLESTART:39.958;
#SAMPLELENGTH:12.000;
#SELECTABLE:YES;
#BPMS:0.000=174.160,64.000=87.085,80.000=174.170;
#STOPS:139.500=1.033
;
#BGCHANGES:;
#FIRSTBEAT:16.000;

#LASTBEAT:268.500;

#SONGFILENAME:Songs/EXTRA/Eye Opener/Eye Opener.sm;

#HASMUSIC:1;

#HASBANNER:1;


//---------------dance-single - BASIC----------------
#NOTES:
     dance-single:
     BASIC:
     easy:
     2:
     0.161,0.288,0.057,0.038,0.000,108.000,6.000,4.000,0.000,0.000:



0000
0000
0000
0000
,
0000
0000
0000
0000
,
0000
0000
0000
0000
,
0000
0000
0000
0000
,
0001
0000
0000
0000
,
0000
0000
0000
0000
,
0000
0000
0000
0000
,
0010
0000
0100
0000
,
0002
0000
0000
0000
,
0000
0000
0000
0003
,
2000
0000
0000
0000
,
0000
0000
0000
3000
,
0020
0000
0000
0000
,
0000
0000
0000
0030
,
0200
0000
0000
0000
,
0000
0000
0000
0300
,
0000
0000
0010
0000
,
0001
0000
0100
0000
,
0010
0000
0001
0000
,
1000
0000
1000
0000
,
0010
0000
0100
0000
,
0001
0000
0001
0000
,
0100
0000
0010
0000
,
0000
0000
0010
0000
,
1001
0000
1001
0000
,
0000
0000
1000
0000
,
0110
0000
0110
0000
,
1001
0000
1001
0000
,
1000
0000
0010
0000
,
1000
0000
0000
0000
,
0010
0000
1000
0000
,
0010
0000
0000
0000
,
0010
0000
0010
0000
,
0001
0000
0001
0000
,
1000
0000
1000
0000
,
0000
1000
0000
0001
,
0000
0000
0000
0001
,
0001
0000
0000
0100
,
0000
0000
0000
0100
,
0100
0000
0000
0001
,
0000
1000
0000
0010
,
0000
0100
0000
0100
,
0000
0010
0000
1000
,
0000
0010
0000
0010
,
0000
0000
0000
0001
,
0001
0000
0000
1000
,
0000
0000
0000
0010
,
0010
0000
0000
1000
,
0000
0001
0000
0001
,
0000
0010
0000
0010
,
0000
0010
0000
0010
,
0000
0000
1000
0000
,
1000
0000
0001
0001
,
0001
0000
1000
0000
,
1000
0000
0010
0010
,
0010
0000
1000
0000
,
1000
0000
1000
1000
,
1000
0000
1000
0000
,
1000
0000
0100
0100
,
0100
0000
0001
0000
,
0001
0000
0001
0001
,
0001
0000
0001
0000
,
0001
0000
0010
0010
,
0010
0000
0001
0000
,
0001
0000
1000
1000
,
1000
0000
0001
0000
,
0001
0000
0100
0100
,
0100
0000
0000
0000;

//---------------dance-single - ANOTHER----------------
#NOTES:
     dance-single:
     ANOTHER:
     medium:
     4:
     0.262,0.416,0.114,0.095,0.000,170.000,12.000,10.000,0.000,0.000:



0000
0000
0000
0000
,
0000
0000
0000
0000
,
0000
0000
0000
0000
,
0000
0000
0000
0000
,
1000
0002
0000
0000
,
0000
0000
0000
0000
,
0000
0000
0000
0000
0000
0000
0000
0003
,
0020
0000
0000
0030
0100
0000
1000
0000
,
0002
0000
0000
0000
0000
0000
0000
0003
,
0020
0000
0000
0000
0000
0000
0000
0030
,
2000
0000
0000
0000
0000
0000
0000
3000
,
0002
0000
0000
0000
0000
0000
0000
0003
,
0020
0000
0000
0000
0000
0000
0000
0030
,
0200
0000
0000
0000
0000
0000
0000
0300
,
0002
0000
0000
0000
,
2000
0000
0000
0000
0000
0000
0000
3003
,
0000
0000
1000
0000
,
0100
0000
0010
0000
,
0001
1000
0000
0000
0100
0000
0000
0000
,
0010
0000
0000
0000
0001
0000
0100
0001
,
1000
0000
1000
0000
,
0010
0000
0100
0000
,
0001
0000
0001
0000
,
0100
0000
0010
0000
,
1001
1001
0010
0000
,
0100
0000
1000
0000
,
0110
0000
0110
0000
,
0110
1001
0110
1001
,
1000
0100
0010
0001
,
1000
0000
0100
0000
,
0010
0001
1000
0100
,
0010
0000
0001
0000
,
0000
0010
0000
0010
0000
0010
0000
0010
,
0000
0001
0000
0001
0000
0001
0000
0001
,
0000
1000
0000
1000
0000
1000
0000
1000
,
0000
1000
0000
0001
,
0000
1000
0010
0100
,
0001
0010
0000
0100
,
0000
0100
0001
1000
,
0010
0001
0000
0001
,
0000
1000
0000
0010
,
0001
0100
0000
0100
,
0000
0010
0000
1000
,
0001
0010
0000
0010
,
0000
0100
0000
0001
,
1000
1000
0000
1000
,
0000
0001
0000
0010
,
1000
1000
0001
1000
,
0001
0001
0100
0001
,
0010
0010
0100
0010
,
0100
0010
1000
0010
,
0001
0000
0000
1000
0000
0000
0000
1000
,
0000
0000
0000
0001
0000
0100
0000
0001
,
0000
0001
0000
1000
0000
0000
0000
1000
,
0000
0000
0000
0001
0000
0010
0000
0001
,
0000
0001
0000
1000
0000
0000
0000
0010
,
0000
0000
0000
0001
0000
1000
0000
0100
,
0000
0010
0000
1000
0000
0000
0000
0010
,
0000
0000
0000
0001
0000
1000
0000
0100
,
0000
0010
0000
1000
0000
0100
0000
1000
,
0000
1000
0000
0001
0000
0100
0000
0001
,
0000
0001
0000
1000
0000
0010
0000
1000
,
0000
1000
0000
0001
0000
0010
0000
0001
,
0000
0001
0000
1000
0000
0001
0000
1000
,
0000
1000
0000
0010
0000
0100
0000
0010
,
0000
0010
0000
1000
0000
0001
0000
1001
,
0000
1001
0000
0010
0000
0100
0000
0110
,
0000
0110
0000
0000
0000
0000
0000
0000;

//---------------dance-single - MANIAC----------------
#NOTES:
     dance-single:
     MANIAC:
     hard:
     6:
     0.402,0.480,0.849,0.114,0.000,194.000,89.000,12.000,0.000,0.000:

0000
0000
0000
0000
,
0000
0000
0000
0000
,
0000
0000
0000
0000
,
0000
0000
0000
0000
,
0011
2002
0000
0000
,
0000
0000
0000
0000
,
0000
0000
0000
3003
,
2020
3030
0101
1100
,
1002
0000
0000
0000
1000
0000
1000
0000
0000
0000
0000
0000
1000
0000
0000
0003
,
0020
0000
0000
0000
0100
0000
0100
0000
0000
0000
0000
0000
0100
0000
0000
0030
,
0200
0000
0000
0000
0010
0000
0010
0000
0000
0000
0000
0000
0010
0000
0000
0300
,
2000
0000
0000
0000
0001
0000
0001
0000
0000
0000
0000
0000
0001
0000
0000
3000
,
0020
0000
0000
0000
0001
0000
0001
0000
0000
0000
0000
0000
0100
0000
0000
0030
,
0200
0000
0000
0000
1000
0000
1000
0000
0000
0000
0000
0000
0010
0000
0000
0300
,
2000
0000
0000
0000
0100
0000
0100
0000
0000
0000
0000
0000
0001
0000
0000
3000
,
0002
0000
0000
0000
0010
0000
0010
0000
0000
0000
0000
0000
1000
0000
0000
0003
,
0000
0000
1000
0000
,
0100
0000
0010
0000
,
0011
1100
0000
0000
0100
0000
0000
0000
,
0010
0000
0000
0000
0101
0000
1100
0011
,
1001
0000
1000
0000
,
0010
0000
0100
0000
,
0101
0000
0001
0000
,
0100
0000
0010
0000
,
1001
1001
0010
0000
,
0100
0000
1000
0000
,
0110
0000
0110
0000
,
0110
1001
0110
1001
,
1010
0100
0010
0001
,
0011
0000
0110
0000
,
1100
0001
1000
0100
,
0101
0000
1001
0000
,
0000
0010
0000
0011
0000
0010
0000
0011
,
0000
0001
0000
0101
0000
0001
0000
0101
,
0000
1000
0000
1001
0000
1000
0000
1001
,
0000
1010
0000
0101
,
0000
1000
0010
0100
,
0001
0011
0000
1100
,
0000
0100
0001
1000
,
0010
1010
0000
0011
,
0000
1001
0000
0010
,
0001
0101
0000
1100
,
0000
1001
0000
1000
,
0001
0011
0000
0101
,
0000
0110
0000
0001
,
1000
1010
0000
1100
,
0000
0110
0000
0010
,
1000
1000
0001
1000
,
0011
0001
0100
0001
,
1001
0010
0100
0010
,
1100
0010
1000
0010
,
0110
0000
0000
1000
0000
0000
0000
1000
,
0000
0000
0000
0101
0000
1100
0000
0101
,
0000
0101
0000
1000
0000
0000
0000
1000
,
0000
0000
0000
0011
0000
1010
0000
0011
,
0000
0011
0000
1000
0000
0000
0000
0010
,
0000
0000
0000
0011
0000
1010
0000
0101
,
0000
1100
0000
1000
0000
0000
0000
0010
,
0000
0000
0000
1100
0000
0101
0000
1010
,
0000
0011
0000
1000
0000
0100
0000
1000
,
0000
1000
0000
1100
0000
0101
0000
1100
,
0000
1100
0000
1000
0000
0010
0000
1000
,
0000
1000
0000
1010
0000
0011
0000
1010
,
0000
1010
0000
1000
0000
0001
0000
1000
,
0000
1000
0000
0110
0000
1001
0000
0110
,
0000
0110
0000
1001
0000
0110
0000
1001
,
0000
1001
0000
1001
0000
0110
0000
1001
,
0000
1001
0000
0000
0000
0000
0000
0000;
